1. <pre id="8cusk"></pre>
    2. <object id="8cusk"></object>
      1. <tbody id="8cusk"></tbody>

        最近看过此主题的会员

        查看: 484|回复: 1
        打印 上一主题 下一主题

        [华语] 原抓:张敬轩《酷爱张敬轩演唱会》2008/分轨FLAC/百度云

        [复制链接]

        1

        主题

        22

        帖子

        1070

        积分

        职业歌手

        Rank: 3Rank: 3

        积分
        1070

        社区QQ达人

        跳转到指定楼层
        1#
        发表于 2019-3-9 14:01:29 | 只看该作者 |只看大图 回帖奖励 |倒序浏览 |阅读模式

        注册会员,获得无损资源下载地址,享受高?#20998;?#38899;乐。

        您需要 登录 才可以下载或查看,没有帐号?注册

        x


        专辑名称:酷爱张敬轩演唱会
        专辑发行: 2008年05月16日

        歌手:张敬轩
        资源格式:FLAC分轨
        专辑介绍:

        2008 [酷爱张敬轩] 演唱会
        全城赞誉 精彩演唱会全纪录 3CD
        35首尽显超强实力作品
        绝顶好歌 最强嘉宾列阵
        谭咏麟 陈奕迅 谢安琪
        王菀之 邓健泓 关楚耀
        2007年张敬轩(Hins)凭一首“酷爱”在乐坛火速上位,取得佳绩。2008年4月 Hins首次踏足香港红馆,连开三场演唱会《酷爱张敬轩2008演唱会》,成为首?#36824;?#24030;首位在红馆开个唱的男歌手。甫出场时Hins以一身红色打扮献唱“迷失表参道”,令全场乐迷哄动。
        当晚不少好友助阵当表演嘉宾,包括王菀之、关楚耀、邓健泓、陈奕迅和谭咏麟,Hins更与他们大唱首本名曲如“手望”、“你当我什么”、“朋友二号”、“钟无艳”、“幸福摩天轮”、“爱在深秋”等等。这张《酷爱张敬轩2008演唱会》3CD收录?#35828;?#26202;Hins出道以来35首精彩的音乐作品,包括了“笑忘书”、“Blessing”、“追风筝的孩子”、“断点”和“老了十岁”,并藉此现场专辑重温个唱的精彩时刻。

        曲目:
        1
        01. Overture
        02. 迷失表参道
        03. 透露
        04. 追风筝的孩子
        05. 断点 (国)
        06. 老了十岁
        07. 过云雨 (国)
        08. 骚灵情歌
        09. 春天 (国)
        10. 明了 (国)
        11. 手望 (合唱) (王菀之)
        12. 巴黎没有摩天轮 (王菀之)


        2
        01. Boys and Girls
        02. 释放 (国)
        03. 孤单公园
        04. 两座位跑车
        05. 遇见神
        06. Blessing
        07. 余震 (Funky version) (合唱) (关楚耀)
        08. 你当我什么 (关楚耀)
        09. 朋友二号 (合唱) (邓健泓)
        10. On Fire (Have You Ever?) (国)
        11. 酷爱
        12. 钟无艳 (合唱) (谢安琪)


        3
        01. 陈百强 Medley: i) 偏偏?#19981;?#20320; ii) 摘星
        02. 幸福摩天轮 (合唱) (陈奕迅)
        03. 夕阳无限好 (陈奕迅)
        04. 幻影 (合唱) (谭咏麟)
        05. 爱在深秋 (合唱) (谭咏麟)
        06. 遥吻
        07. 笑忘书
        08. 我的天
        09. 余震
        10. Hurt So Bad (国)
        11. My Way (国)

        1. Exact Audio Copy V1.3 from 2. September 2016

        2. EAC extraction logfile from 9. March 2019, 11:17

        3. 張敬軒 / 酷愛張敬軒演唱會Disc 1

        4. Used drive  : ASUS    BW-16D1H-U   Adapter: 1  ID: 0

        5. Read mode               : Secure
        6. Utilize accurate stream : Yes
        7. Defeat audio cache      : Yes
        8. Make use of C2 pointers : No

        9. Combined read/write offset correction       : 0
        10. Overread into Lead-In and Lead-Out          : No
        11. Fill up missing offset samples with silence : Yes
        12. Delete leading and trailing silent blocks   : No
        13. Null samples used in CRC calculations       : Yes
        14. Used interface                              : Native Win32 interface for Win NT & 2000
        15. Gap handling                                : Appended to previous track

        16. Used output format              : User Defined Encoder
        17. Selected bitrate                : 1024 kBit/s
        18. Quality                         : High
        19. Add ID3 tag                     : Yes
        20. Command line compressor         : e:\Program Files (x86)\Exact Audio Copy\FLAC\FLAC.EXE
        21. Additional command line options : -6 -V -T "ARTIST=%artist%" -T "TITLE=%title%" -T "ALBUM=%albumtitle%" -T "DATE=%year%" -T "TRACKNUMBER=%tracknr%" -T "GENRE=%genre%" -T "COMMENT=%comment%" -T "BAND=%albuminterpret%" -T "ALBUMARTIST=%albuminterpret%" -T "COMPOSER=%composer%" %haslyrics%--tag-from-file=LYRICS="%lyricsfile%"%haslyrics% -T "DISCNUMBER=%cdnumber%" -T "TOTALDISCS=%totalcds%" -T "TOTALTRACKS=%numtracks%" %hascover%--picture="%coverfile%"%hascover% %source% -o %dest%


        22. TOC of the extracted CD

        23.      Track |   Start  |  Length  | Start sector | End sector
        24.     ---------------------------------------------------------
        25.         1  |  0:00.00 |  1:08.06 |         0    |     5105   
        26.         2  |  1:08.06 |  4:04.31 |      5106    |    23436   
        27.         3  |  5:12.37 |  4:36.12 |     23437    |    44148   
        28.         4  |  9:48.49 |  5:09.15 |     44149    |    67338   
        29.         5  | 14:57.64 |  4:48.71 |     67339    |    89009   
        30.         6  | 19:46.60 |  3:46.54 |     89010    |   106013   
        31.         7  | 23:33.39 |  4:26.26 |    106014    |   125989   
        32.         8  | 27:59.65 |  5:18.43 |    125990    |   149882   
        33.         9  | 33:18.33 |  4:41.17 |    149883    |   170974   
        34.        10  | 37:59.50 |  7:36.63 |    170975    |   205237   
        35.        11  | 45:36.38 |  4:30.64 |    205238    |   225551   
        36.        12  | 50:07.27 |  3:48.09 |    225552    |   242660   


        37. Track  1

        38.      Filename C:\Users\a\Desktop\張敬軒 - 酷愛張敬軒演唱會[Disc 1]\01. 張敬軒 - Overture.wav

        39.      Pre-gap length  0:00:02.00

        40.      Peak level 82.5 %
        41.      Extraction speed 2.4 X
        42.      Track quality 99.8 %
        43.      Test CRC BF0C5E3D
        44.      Copy CRC BF0C5E3D
        45.      Copy OK

        46. Track  2

        47.      Filename C:\Users\a\Desktop\張敬軒 - 酷愛張敬軒演唱會[Disc 1]\02. 張敬軒 - 迷失表參道.wav

        48.      Peak level 100.0 %
        49.      Extraction speed 4.8 X
        50.      Track quality 100.0 %
        51.      Test CRC 7692C8E3
        52.      Copy CRC 7692C8E3
        53.      Copy OK

        54. Track  3

        55.      Filename C:\Users\a\Desktop\張敬軒 - 酷愛張敬軒演唱會[Disc 1]\03. 張敬軒 - 透露.wav

        56.      Peak level 100.0 %
        57.      Extraction speed 5.4 X
        58.      Track quality 100.0 %
        59.      Test CRC B1F19062
        60.      Copy CRC B1F19062
        61.      Copy OK

        62. Track  4

        63.      Filename C:\Users\a\Desktop\張敬軒 - 酷愛張敬軒演唱會[Disc 1]\04. 張敬軒 - 追風箏的孩子.wav

        64.      Peak level 100.0 %
        65.      Extraction speed 6.0 X
        66.      Track quality 100.0 %
        67.      Test CRC D04225AD
        68.      Copy CRC D04225AD
        69.      Copy OK

        70. Track  5

        71.      Filename C:\Users\a\Desktop\張敬軒 - 酷愛張敬軒演唱會[Disc 1]\05. 張敬軒 - 斷點 (國語).wav

        72.      Peak level 99.0 %
        73.      Extraction speed 6.4 X
        74.      Track quality 100.0 %
        75.      Test CRC 277056D3
        76.      Copy CRC 277056D3
        77.      Copy OK

        78. Track  6

        79.      Filename C:\Users\a\Desktop\張敬軒 - 酷愛張敬軒演唱會[Disc 1]\06. 張敬軒 - 老了十歲.wav

        80.      Peak level 64.0 %
        81.      Extraction speed 5.8 X
        82.      Track quality 99.9 %
        83.      Test CRC 5005DB2C
        84.      Copy CRC 5005DB2C
        85.      Copy OK

        86. Track  7

        87.      Filename C:\Users\a\Desktop\張敬軒 - 酷愛張敬軒演唱會[Disc 1]\07. 張敬軒 - 過雲雨 (國語).wav

        88.      Peak level 70.5 %
        89.      Extraction speed 7.0 X
        90.      Track quality 100.0 %
        91.      Test CRC B6108537
        92.      Copy CRC B6108537
        93.      Copy OK

        94. Track  8

        95.      Filename C:\Users\a\Desktop\張敬軒 - 酷愛張敬軒演唱會[Disc 1]\08. 張敬軒 - 騷靈情歌.wav

        96.      Peak level 100.0 %
        97.      Extraction speed 7.6 X
        98.      Track quality 100.0 %
        99.      Test CRC 30E37AB3
        100.      Copy CRC 30E37AB3
        101.      Copy OK

        102. Track  9

        103.      Filename C:\Users\a\Desktop\張敬軒 - 酷愛張敬軒演唱會[Disc 1]\09. 張敬軒 - 春天 (國語).wav

        104.      Peak level 100.0 %
        105.      Extraction speed 7.0 X
        106.      Track quality 99.9 %
        107.      Test CRC 995436D9
        108.      Copy CRC 995436D9
        109.      Copy OK

        110. Track 10

        111.      Filename C:\Users\a\Desktop\張敬軒 - 酷愛張敬軒演唱會[Disc 1]\10. 張敬軒 - 明瞭 (國語).wav

        112.      Peak level 100.0 %
        113.      Extraction speed 7.9 X
        114.      Track quality 99.9 %
        115.      Test CRC F5D9D727
        116.      Copy CRC F5D9D727
        117.      Copy OK

        118. Track 11

        119.      Filename C:\Users\a\Desktop\張敬軒 - 酷愛張敬軒演唱會[Disc 1]\11. 張敬軒/王菀之 - 手望.wav

        120.      Peak level 99.4 %
        121.      Extraction speed 8.4 X
        122.      Track quality 100.0 %
        123.      Test CRC 4187D7D8
        124.      Copy CRC 4187D7D8
        125.      Copy OK

        126. Track 12

        127.      Filename C:\Users\a\Desktop\張敬軒 - 酷愛張敬軒演唱會[Disc 1]\12. 王菀之 - 巴黎沒有摩天輪.wav

        128.      Peak level 98.8 %
        129.      Extraction speed 8.3 X
        130.      Track quality 100.0 %
        131.      Test CRC 70A7D83F
        132.      Copy CRC 70A7D83F
        133.      Copy OK

        134. No errors occurred

        135. End of status report

        136. ---- CUETools DB Plugin V2.1.6

        137. [CTDB TOCID: s__t6pvZy6MvTfVEOs5CdnBhYuU-] found
        138. Submit result: already submitted
        139. Track | CTDB Status
        140.   1   | (26/26) Accurately ripped
        141.   2   | (26/26) Accurately ripped
        142.   3   | (26/26) Accurately ripped
        143.   4   | (26/26) Accurately ripped
        144.   5   | (26/26) Accurately ripped
        145.   6   | (26/26) Accurately ripped
        146.   7   | (25/26) Accurately ripped
        147.   8   | (26/26) Accurately ripped
        148.   9   | (26/26) Accurately ripped
        149. 10   | (26/26) Accurately ripped
        150. 11   | (26/26) Accurately ripped
        151. 12   | (26/26) Accurately ripped


        152. ==== Log checksum CC3DC3405A1FF882581723B03582A82242A44748253501511ED812AFE9318D36 ====
        复制代码


        游客,如果您要查看本帖隐藏内容请回复

        评分

        参与人数 2CD +430 收起 理由
        毅丝?#36824;?/a> + 30 兹瓷,稀缺资源
        最终之战 + 400 ?#34892;?#20998;享资源,CD包因你而精彩.

        查看全部评分





        飞鱼原抓:蔡?#25042;幀禪gly Beauty》2018 整轨WAV+LOG/百度
        云飞原抓:少女时代 《I Got A Boy》台版2013/整轨WAV/百度云
         成长值: 660

        0

        主题

        15

        帖子

        2

        积分

        VIP2

        Rank: 5Rank: 5

        积分
        2
        2#
        发表于 2019-3-22 18:02:35 | 只看该作者
        兹瓷,稀缺资源
        您需要登录后才可以回帖 登录 | 注册

        本版积分规则

        快速回复 返回顶部 返回列表
        重庆快乐十分开奖结果彩票控
        1. <pre id="8cusk"></pre>
        2. <object id="8cusk"></object>
          1. <tbody id="8cusk"></tbody>
            1. <pre id="8cusk"></pre>
            2. <object id="8cusk"></object>
              1. <tbody id="8cusk"></tbody>