1. <pre id="8cusk"></pre>
    2. <object id="8cusk"></object>
      1. <tbody id="8cusk"></tbody>

        最近看过此主题的会员

        查看: 894|回复: 90
        打印 上一主题 下一主题

        原抓:鹿先森《华年》2018/WAV整轨/BD

        [复制链接]

        12

        主题

        152

        帖子

        1353

        积分

        当红偶像

        Rank: 4

        积分
        1353
        跳转到指定楼层
        1#
        发表于 2019-5-19 19:15:22 | 只看该作者 |只看大图 回帖奖励 |倒序浏览 |阅读模式

        注册会员,获得无损资源下载地址,享受高?#20998;?#38899;乐。

        您需要 登录 才可以下载或查看,没有帐号?注册

        x
        本帖最后由 bluecdx 于 2019-7-4 23:00 编辑

             这?#25490;?#26159;我各人比较?#19981;?#30340;盘,所以自己购入的。网上也没找到这?#25490;?#30340;完整 的WAV自抓高音质的文件。所以自己购入一张。让大家感受一下吧。
           因为有一个朋友回复我说。这个资源TEAC W58E抓的轨没有设置偏移值 ,那?#33402;?#27425;发?#25945;?#19981;同的机器抓 的轨。供你们比?#31232;?#37117;是发烧的好机器。HP cd-writer 7500+  和NEC 1801A 日产光驱




        ?#29615;?#35805;~!!!!!!!!!!!直奔主题!!!

        鹿先森乐队专辑介绍:
        这三年来,我们都不?#32423;?#21516;时常会想起2015年8月的那个夏天,晚风轻柔,啤酒管够,欢声笑语,醉饮高歌……那是鹿先森最初的模样。决定组建这个乐队的那一刻,所有?#35828;?#30524;睛里清澈,明亮。后来我们如愿做?#35828;?#19968;张专辑,又因此遇到了你们,开始了一段高速奔跑又壮阔波澜的时光。如果非要给这些时光下个定义,我们愿称之为“绽放的日子”。华年,即绽放的日子,因为遇到鹿先森的彼此、遇到天南海北的你们而一起绽放的日子。

        曾经十几二十来岁那些忘不掉的时光,热烈,飘荡而充满渴望,每一刻都是光泽无比的华年。经年过往之后我们的肉体正在?#37027;?#22320;?#20808;ィ?#29983;活的枷锁却越来越多, 而那个仍然不安的灵魂将何处安放?我们一直试图寻找答案,渐渐地才发现原来答案就在每时每刻?#32435;?#27963;里。生活汇聚成音符,音符承载情感,于是有了这张专辑。那些命运、渴望和热烈,青春、鲜血和真切,宛如昨日,也宛如?#19997;獺?#24754;欢仍旧交织,生活依然不易,所幸仍然有所坚定,有所较劲,愿意穷极一生?#22969;?#19968;个当下都成为“绽放的日子”,继续努力。

        如果你跟鹿先森一样,历经万千悲喜?#27901;?#23450;于当下,那么此时?#19997;蹋?#23601;是你我的华年。感受到了吗?迎面夏日晚风轻柔,期许相拥波澜壮阔。那是你的华年,鹿先森的华年,咱们的华年。





        1 与我轻轻唱
        2 之间
        3 他
        4 昨日
        5 华年
        6 你住在我心里的原因
        7 他们满足了你所有的美梦
        8 诗?#35828;?#23478;
        9 一场雨落下来要用多久
        10 能随心情来听歌 a song follows your heart
        11 小夜曲

        HP CD-WRITER 7500+
        鹿先森乐队 / 华年

        使用驱动器  :HP      CD-Writer+ 7500   Adapter: 1  ID: 1

        读取模式      : 可靠Secure
        使用精确流     : 是
        清空音频缓存    : 是
        使用 C2 指示器 : 否

        读取偏移校正:               : 1160
        读取 Lead-In 和 Lead-Out : 否
        用静音填充抓取中丢失偏?#39057;?#37319;样       : 是
        去除首尾静音块               : 否
        在CRC 计算中使用?#19997;?#26679;本       : 是
        已用接口                  : Win NT 及 2000 本地 Win32 接口

        所用输出模?#21073;?: 内部 WAV 函数
        样本格式    : 44.100 Hz; 16 Bit; 立体声


        已抓取 CD 的 TOC

             音轨 |    起始    |    长度    |  起始扇区  |  结束扇区  
            --------------------------------------------
              1 |  0:00.00 |  4:22.69 |      0 |  19718
              2 |  4:22.69 |  5:05.05 |  19719 |  42598
              3 |  9:27.74 |  4:26.36 |  42599 |  62584
              4 | 13:54.35 |  5:18.71 |  62585 |  86505
              5 | 19:13.31 |  4:21.23 |  86506 | 106103
              6 | 23:34.54 |  4:33.23 | 106104 | 126601
              7 | 28:08.02 |  3:33.57 | 126602 | 142633
              8 | 31:41.59 |  5:25.59 | 142634 | 167067
              9 | 37:07.43 |  3:50.32 | 167068 | 184349
             10 | 40:58.00 |  4:53.71 | 184350 | 206395
             11 | 45:51.71 |  4:20.31 | 206396 | 225926


        ?#27573;?#29366;态及错误

        已选择?#27573;?br />
             文件名 C:\Users\Administrator\Desktop\鹿先森乐队-华年\7500\鹿先森-华年.wav

             峰值电平 100.0 %
             抓取速度 1.2 X
             ?#27573;?#36136;量 100.0 %
             复制 CRC EFE9A175
             复制成功

        没有错误发生

        状态报告结尾

        ---- CUETools DB Plugin V2.1.6

        [CTDB TOCID: BupJQy4N9CHyBNcr2RTrW0oM9PI-] found
        Submit result: BupJQy4N9CHyBNcr2RTrW0oM9PI- has been confirmed
        Track | CTDB Status
          1   | (7/7) Accurately ripped
          2   | (7/7) Accurately ripped
          3   | (7/7) Accurately ripped
          4   | (7/7) Accurately ripped
          5   | (7/7) Accurately ripped
          6   | (7/7) Accurately ripped
          7   | (7/7) Accurately ripped
          8   | (7/7) Accurately ripped
          9   | (7/7) Accurately ripped
        10   | (7/7) Accurately ripped
        11   | (7/7) Accurately ripped




        NEC 1801A 日产光驱
        鹿先森乐队 / 《华年》

        光驱型号   NEC     CD-ROM DRIVE:282   Adapter: 1  ID: 0

        抓轨模?#20581; ?: 精确模式
        使用精确流  : 是
        屏?#38382;?#25454;缓存 : 否
        使用C2?#26469;?: 否

        读取偏移校正             : 680
        通读Lead-In和Lead-Out : 否
        用静音填充丢失的偏移采样       : 是
        删除开始与结尾的静音部分       : 否
        校验和计算中使用空白采样       : 否
        使用的接口              : Win NT & 2000 的本地Win32接口

        输出格?#20581;  ?: 内部WAV例程
        采样格?#20581;  ?: 44.100 Hz; 16 Bit; 立体声


        CD内容目录(TOC)

             Track |   Start  |  Length  | Start sector | End sector
            ---------------------------------------------------------
                1  |  0:00.00 |  4:22.69 |         0    |    19718   
                2  |  4:22.69 |  5:05.05 |     19719    |    42598   
                3  |  9:27.74 |  4:26.36 |     42599    |    62584   
                4  | 13:54.35 |  5:18.71 |     62585    |    86505   
                5  | 19:13.31 |  4:21.23 |     86506    |   106103   
                6  | 23:34.54 |  4:33.23 |    106104    |   126601   
                7  | 28:08.02 |  3:33.57 |    126602    |   142633   
                8  | 31:41.59 |  5:25.59 |    142634    |   167067   
                9  | 37:07.43 |  3:50.32 |    167068    |   184349   
               10  | 40:58.00 |  4:53.71 |    184350    |   206395   
               11  | 45:51.71 |  4:20.31 |    206396    |   225926   


        ?#21073;剑?#20197;下为抓取选定区域的结果报告?#21073;剑?br />
        选定区域为(空白为全盘镜像):

             抓轨文件 :C:\Users\Administrator\Desktop\鹿先森乐队-华年\NEC\鹿先森-华年.wav

             峰值电?#20581;。?00.0 %
             抓轨速?#21462;。?.9 X
             ?#27573;?#36136;量 :99.9 %
             复制CRC:65088BF1
             复制成功 !


        游客,如果您要查看本帖隐藏内容请回复




        评分

        参与人数 1CD +240 收起 理由
        最终之战 + 240 ?#34892;?#20998;享资源,CD包因你而精彩.

        查看全部评分





        张敬轩《是時候...》3CD/2013/WAV+CUE/CT
        汪苏泷《生来第一 - Single》2019/FLAC/分轨/BD
        integral

        2

        主题

        298

        帖子

        1025

        积分

        职业歌手

        Rank: 3Rank: 3

        积分
        1025
        2#
        发表于 2019-5-19 19:38:47 | 只看该作者
        ?#34892;?#27004;主的fqt分享

        0

        主题

        355

        帖子

        430

        积分

        乐坛新星

        Rank: 2

        积分
        430
        3#
        发表于 2019-5-19 19:50:36 | 只看该作者
        ?#34892;?#21457;布经典的资源,值得收藏

        0

        主题

        431

        帖子

        1096

        积分

        职业歌手

        Rank: 3Rank: 3

        积分
        1096
        4#
        发表于 2019-5-19 19:56:21 | 只看该作者
        谢谢楼主的分享!!!!!!!!!!!!

        0

        主题

        666

        帖子

        -55

        积分

        恶意回复被扣没分了,积分增加方法见置顶帖

        积分
        -55
        5#
        发表于 2019-5-19 19:59:33 | 只看该作者
        ?#34892;?#20998;享 收藏了

        0

        主题

        15

        帖子

        -336

        积分

        恶意回复被扣没分了,积分增加方法见置顶帖

        积分
        -336
        6#
        发表于 2019-5-19 20:43:20 | 只看该作者
        ?#34892;?#27004;主的分享,真心不错

        1

        主题

        32

        帖子

        140

        积分

        新人会员,请认真回复,若恶意回复,直接封号

        Rank: 1

        积分
        140
        7#
        发表于 2019-5-19 20:55:23 | 只看该作者
        ?#34892;?#27004;主发布经典的资源,值得收藏!

        0

        主题

        114

        帖子

        243

        积分

        乐坛新星

        Rank: 2

        积分
        243

        社区QQ达人

        8#
        发表于 2019-5-19 21:10:37 | 只看该作者
        ?#34892;?#27004;主发布经典的资源,值得收藏!

        0

        主题

        433

        帖子

        98

        积分

        新人会员,请认真回复,若恶意回复,直接封号

        Rank: 1

        积分
        98

        社区QQ达人

        9#
        发表于 2019-5-19 21:34:49 | 只看该作者
        ?#34892;?#27004;主分享!!!!!!!!!
        10#
        发表于 2019-5-19 21:35:24 | 只看该作者
        不错,经典的专辑!!!

        0

        主题

        546

        帖子

        1212

        积分

        职业歌手

        Rank: 3Rank: 3

        积分
        1212

        社区QQ达人

        11#
        发表于 2019-5-19 21:40:20 | 只看该作者
        经典的资源,值得收藏!

        0

        主题

        125

        帖子

        78

        积分

        新人会员,请认真回复,若恶意回复,直接封号

        Rank: 1

        积分
        78
        12#
        发表于 2019-5-20 07:58:43 | 只看该作者
        ?#34892;?#20998;享!!!!!!!!!!!!!!!!!!!!!!!!111

        3

        主题

        5041

        帖子

        5587

        积分

        人气天王

        Rank: 5Rank: 5

        积分
        5587
        13#
        发表于 2019-5-20 08:36:41 | 只看该作者
        第一次听说这个乐队组合,作品也是首?#38382;?#21548;。谢谢分享!

        1

        主题

        54

        帖子

        452

        积分

        职业歌手

        Rank: 3Rank: 3

        积分
        452

        社区QQ达人

        14#
        发表于 2019-5-20 08:55:34 | 只看该作者
        下来收了,?#34892;?#20998;享!

        0

        主题

        7928

        帖子

        3094

        积分

        当红偶像

        Rank: 4

        积分
        3094
        15#
        发表于 2019-5-20 09:12:55 | 只看该作者
        听听看吧,谢谢分享好东西!!!!!!!!!!!
        您需要登录后才可以回帖 登录 | 注册

        本版积分规则

        快速回复 返回顶部 返回列表
        重庆快乐十分开奖结果彩票控
        1. <pre id="8cusk"></pre>
        2. <object id="8cusk"></object>
          1. <tbody id="8cusk"></tbody>
            1. <pre id="8cusk"></pre>
            2. <object id="8cusk"></object>
              1. <tbody id="8cusk"></tbody>
                快乐赛车开奖视频播放 86李逵劈鱼游戏机 比特币交易软件叫什么关系 十二生肖动画片 穿越火线最新版本下载 德国纽伦堡国际门窗幕墙展览会 浦和红钻阵型 企鹅家族电子游艺 重庆快乐10分开奖时间 吉利分分彩开奖视频