1. <pre id="8cusk"></pre>
    2. <object id="8cusk"></object>
      1. <tbody id="8cusk"></tbody>

        最近看过此主题的会员

        查看: 190|回復: 0
        打印 上一主題 下一主題

        [華語] BN原抓:傷心欲絕《還是偶爾想要偉大》/WAV整軌/BD

        [復制鏈接]

        44

        主題

        595

        帖子

        1萬

        積分

        流行教主

        Rank: 6Rank: 6

        積分
        11165

        社區QQ達人

        跳轉到指定樓層
        1#
        發表于 2019-7-29 20:51:24 | 只看該作者 |只看大圖 回帖獎勵 |倒序瀏覽 |閱讀模式

        注冊會員,獲得無損資源下載地址,享受高品質音樂。

        您需要 登錄 才可以下載或查看,沒有帳號?注冊

        x

        語種:
        國語

        唱片公司:
        StreetVoice

        專輯類別:
        錄音室專輯

        發行時間:
        2017-08-11







        臺北搖滾樂團『傷心欲絕』第二張專輯,于2017年8月正式發行。
        獻給沒聽過傷心欲絕的你,他們是玩龐克音樂起家的,卻比想象的脆弱。他們的現場演出充滿汗水、酒精、及費洛蒙混合的黏膩氣味,肉體激烈碰撞,為的是一份憐憫、關懷、或相互安慰,分擔人生這個修羅場的殘酷和莫名的自卑感。你可以從〈Intro〉開始聽,第一首歌用演奏曲起頭熱身,2011年他們的EP《喔我沒有靈魂》早就玩過了。這次用了小調,管風琴和吉他破音刮起的臺風,沒有吹倒一棵樹,沒有人會以為沒有歌唱就是后搖滾,沒有。
        獻給聽過龐克音樂的你,Sex Pistols的指桑罵槐、The Clash的得理不饒人、甚至早期濁水溪的后現代解構,都不是傷心欲絕的重點。龐克是他們的青春,骨子里卻漸漸成長為小說家、觀察家、和老派得可以的詩人。你可以從〈搖滾糾察小隊長〉開始聽,那兩句「Joey Ramone用搖滾樂對抗全世界、地下社會用搖滾對抗師大里民自救會」雙重對比點出多重困頓,如今師大公園依然像一口井,聚集著深夜無力負擔酒吧消費的人們,在夜里呱呱叫。
        獻給深愛傷心欲絕的你,請你仔細聽完整張專輯、并把《我愛您》和《喔我沒有靈魂》多復習幾遍,不要聽了幾個小節就以為傷心欲絕變成Bon Jovi或The Wallflowers,你依然可以感受到許正泰民歌風情,你可以從〈一整個世代的宿醉〉、〈生不沉默 長成閉嘴〉開始聽,橫跨近四分之一個地球和半個世紀的全面控訴、下一首又想敬個酒裝作沒事還一邊數落自己,人們長大會世故一點,但仍舊一樣地幼稚。
             

        《還是偶爾想要偉大》,獻給你。
        專輯曲目
        • 1.Intro
        • 2.搖滾糾察小隊長
        • 3.一個隱藏號碼的來電
        • 4.破了洞的美夢TaipeiOcean
        • 5.持續三年的暈眩
        • 6.Iquit
        • 7.ImaTaiwannonstylerock
        • 8.失戀后的那個禮拜
        • 9.一整個世代的宿醉
        • 10.生不沉默,長成閉嘴
        • 11.也許我見不到你了
        • 12.幽靈先生

        *************************分隔線******************************

        Exact Audio Copy V1.2 from 12. August 2016

        EAC 抓取日志文件從23. 七月 2019, 19:40

        傷心欲絕 / 還是偶爾想要偉大

        使用驅動器  :PLDS    DVDROM DH16D6SH   Adapter: 1  ID: 0

        讀取模式      : 可靠Secure
        使用精確流     : 是
        清空音頻緩存    : 是
        使用 C2 指示器 : 否

        讀取偏移校正:               : 6
        讀取 Lead-In 和 Lead-Out : 否
        用靜音填充抓取中丟失偏移的采樣       : 是
        去除首尾靜音塊               : 否
        在CRC 計算中使用了空樣本       : 是
        已用接口                  : Win NT 及 2000 本地 Win32 接口

        所用輸出模式: : 內部 WAV 函數
        樣本格式    : 44.100 Hz; 16 Bit; 立體聲

        已抓取 CD 的 TOC

             音軌 |    起始    |    長度    |  起始扇區  |  結束扇區  
            --------------------------------------------
              1 |  0:00.00 |  1:35.38 |      0 |   7162
              2 |  1:35.38 |  3:43.68 |   7163 |  23955
              3 |  5:19.31 |  3:01.69 |  23956 |  37599
              4 |  8:21.25 |  4:31.54 |  37600 |  57978
              5 | 12:53.04 |  4:01.61 |  57979 |  76114
              6 | 16:54.65 |  1:24.66 |  76115 |  82480
              7 | 18:19.56 |  1:18.57 |  82481 |  88387
              8 | 19:38.38 |  1:29.44 |  88388 |  95106
              9 | 21:08.07 |  2:09.38 |  95107 | 104819
             10 | 23:17.45 |  3:00.11 | 104820 | 118330
             11 | 26:17.56 |  1:49.33 | 118331 | 126538
             12 | 28:07.14 |  4:07.72 | 126539 | 145135

        范圍狀態及錯誤

        已選擇范圍

             文件名 E:\自購CD\傷心欲絕 - 還是偶爾想要偉大\傷心欲絕 - 還是偶爾想要偉大.wav

             峰值電平 100.0 %
             抓取速度 5.2 X
             范圍質量 100.0 %
             復制 CRC 392C6A9B
             復制成功

        沒有錯誤發生

        AccurateRip 摘要

        音軌  1  在數據庫中不存在
        音軌  2  在數據庫中不存在
        音軌  3  在數據庫中不存在
        音軌  4  在數據庫中不存在
        音軌  5  在數據庫中不存在
        音軌  6  在數據庫中不存在
        音軌  7  在數據庫中不存在
        音軌  8  在數據庫中不存在
        音軌  9  在數據庫中不存在
        音軌 10  在數據庫中不存在
        音軌 11  在數據庫中不存在
        音軌 12  在數據庫中不存在

        沒有任何音軌在 AccurateRip 數據庫中有記錄

        狀態報告結尾

        ---- CUETools DB Plugin V2.1.6

        [CTDB TOCID: JzEymsWu9ktbZDO4zkiyMxouebM-] found
        Submit result: JzEymsWu9ktbZDO4zkiyMxouebM- has been confirmed
        Track | CTDB Status
          1   | (6/7) Accurately ripped
          2   | (6/7) Accurately ripped
          3   | (6/7) Accurately ripped
          4   | (5/7) Accurately ripped
          5   | (5/7) Accurately ripped
          6   | (5/7) Accurately ripped
          7   | (5/7) Accurately ripped
          8   | (5/7) Accurately ripped
          9   | (5/7) Accurately ripped
        10   | (5/7) Accurately ripped
        11   | (5/7) Accurately ripped
        12   | (5/7) Accurately ripped

        ==== 記錄校驗日志 E5CDAD80140A21F64D0AC1F0369757263E53DBC50711B0C6BB64929CD9952333 ====
        *************************分隔線******************************
        游客,如果您要查看本帖隱藏內容請回復


        評分

        參與人數 1CD +240 收起 理由
        最終之戰 + 240

        查看全部評分





        BN原抓:貳伍吸菸所《光明路》/WAV整軌/BD
        BN原抓:共犯結構《北山湖紀事本末》/WAV整軌/BD
        您需要登錄后才可以回帖 登錄 | 注冊

        本版積分規則

        快速回復 返回頂部 返回列表
        重庆快乐十分开奖结果彩票控
        1. <pre id="8cusk"></pre>
        2. <object id="8cusk"></object>
          1. <tbody id="8cusk"></tbody>
            1. <pre id="8cusk"></pre>
            2. <object id="8cusk"></object>
              1. <tbody id="8cusk"></tbody>
                福建体彩36选7最新开奖54期 上海11选5走势图遗漏 重庆时时冷热号 西甲球队 中彩网3d走势图 海南七星彩开奖规律图 11选五湖北开奖走势图 江苏11选5开奖视频 经典电子游戏有哪些 飞艇手机免费八码计划