1. <pre id="8cusk"></pre>
    2. <object id="8cusk"></object>
      1. <tbody id="8cusk"></tbody>

        最近看过此主题的会员

        查看: 185|回復: 0
        打印 上一主題 下一主題

        [華語] BN原抓:共犯結構《北山湖紀事本末》/WAV整軌/BD

        [復制鏈接]

        44

        主題

        595

        帖子

        1萬

        積分

        流行教主

        Rank: 6Rank: 6

        積分
        11165

        社區QQ達人

        跳轉到指定樓層
        1#
        發表于 2019-7-29 21:01:47 | 只看該作者 |只看大圖 回帖獎勵 |倒序瀏覽 |閱讀模式

        注冊會員,獲得無損資源下載地址,享受高品質音樂。

        您需要 登錄 才可以下載或查看,沒有帳號?注冊

        x

        介紹
            2015年,在臺北幾支喜歡坐在地板圍一圈的龐克樂隊相繼解散后,各隊遺留下的四名年輕人,似乎不愿意就此打住。說是反抗也好、胡鬧也罷,硬是要在這片虛無的沙漠中,再燒出一把燥動的火。同年6月,共犯結構正式成軍。 
         隔年,借由過往的自身經驗及與圍圈圈的默契,共犯以十萬火急的速度,發行了第一張迷你同名EP,再歷經一連串沖繩、日本、香港的洗禮后,一眨眼已經2017年,龐克青年是時候該穩下腳步,好好紀錄下這一切荒謬卻精彩的過程,準備給無聊透頂的偉哉寶島一點樂子。 
         「北山湖」一詞源自于團員土生土長的家鄉,分別為北投、泰山、內湖,它可以象征一種集結、一個基地,亦或是一種生活方式。整張專輯共計11首歌,延續了一貫直言不諱的血脈,我們要描述的不只是階級矛盾下的荒誕,更重要的是,在嘗試掙脫出一種沒完沒了的惡性循環后,抵達向往的北山湖跟你喝上一杯。這一次也沒有要沖破圈圈,而是要圍一個更大的! 
         2018年7月,成軍三周年,《北山湖紀事本末》正式發行。
        曲目:
        01序
        02一席之地
        03滿地紅
        04東亞大笨蛋
        05健康捐
        06判官
        07沖繩
        08殺死異鄉人
        09牛馬精神
        10不良教育

        11北山湖

        ***************分隔線*******************
        Exact Audio Copy V1.2 from 12. August 2016

        EAC 抓取日志文件從23. 七月 2019, 20:45

        共犯結構 / 北山湖紀事本末

        使用驅動器  :PLDS    DVDROM DH16D6SH   Adapter: 1  ID: 0

        讀取模式      : 可靠Secure
        使用精確流     : 是
        清空音頻緩存    : 是
        使用 C2 指示器 : 否

        讀取偏移校正:               : 6
        讀取 Lead-In 和 Lead-Out : 否
        用靜音填充抓取中丟失偏移的采樣       : 是
        去除首尾靜音塊               : 否
        在CRC 計算中使用了空樣本       : 是
        已用接口                  : Win NT 及 2000 本地 Win32 接口

        所用輸出模式: : 內部 WAV 函數
        樣本格式    : 44.100 Hz; 16 Bit; 立體聲

        已抓取 CD 的 TOC

             音軌 |    起始    |    長度    |  起始扇區  |  結束扇區  
            --------------------------------------------
              1 |  0:00.00 |  1:21.01 |      0 |   6075
              2 |  1:21.01 |  2:36.69 |   6076 |  17844
              3 |  3:57.70 |  2:26.19 |  17845 |  28813
              4 |  6:24.14 |  2:05.07 |  28814 |  38195
              5 |  8:29.21 |  1:10.39 |  38196 |  43484
              6 |  9:39.60 |  1:51.73 |  43485 |  51882
              7 | 11:31.58 |  2:03.14 |  51883 |  61121
              8 | 13:34.72 |  3:04.09 |  61122 |  74930
              9 | 16:39.06 |  2:20.33 |  74931 |  85463
             10 | 18:59.39 |  2:44.43 |  85464 |  97806
             11 | 21:44.07 |  3:16.28 |  97807 | 112534

        范圍狀態及錯誤

        已選擇范圍

             文件名 E:\自購CD\共犯結構 - 北山湖紀事本末共犯結構 - 北山湖紀事本末.wav

             峰值電平 100.0 %
             抓取速度 4.8 X
             范圍質量 100.0 %
             復制 CRC 7BF8B4BD
             復制成功

        沒有錯誤發生
        AccurateRip 摘要
        音軌  1  在數據庫中不存在
        音軌  2  在數據庫中不存在
        音軌  3  在數據庫中不存在
        音軌  4  在數據庫中不存在
        音軌  5  在數據庫中不存在
        音軌  6  在數據庫中不存在
        音軌  7  在數據庫中不存在
        音軌  8  在數據庫中不存在
        音軌  9  在數據庫中不存在
        音軌 10  在數據庫中不存在
        音軌 11  在數據庫中不存在
        沒有任何音軌在 AccurateRip 數據庫中有記錄

        狀態報告結尾

        ---- CUETools DB Plugin V2.1.6

        [CTDB TOCID: U7YftAspgDpRbFotALkzp0XmIlU-] found
        Submit result: U7YftAspgDpRbFotALkzp0XmIlU- has been confirmed
        Track | CTDB Status
          1   | (3/3) Accurately ripped
          2   | (3/3) Accurately ripped
          3   | (3/3) Accurately ripped
          4   | (3/3) Accurately ripped
          5   | (3/3) Accurately ripped
          6   | (3/3) Accurately ripped
          7   | (3/3) Accurately ripped
          8   | (3/3) Accurately ripped
          9   | (3/3) Accurately ripped
        10   | (3/3) Accurately ripped
        11   | (3/3) Accurately ripped


        ==== 記錄校驗日志 678AA097AA7843D6A1CDE2390912BB6F0F7537EBCB83FA8E62ADEC55AA972578 ====
        [size=18.6667px]***************分隔線*******************
        游客,如果您要查看本帖隱藏內容請回復



        評分

        參與人數 1CD +240 收起 理由
        最終之戰 + 240 感謝分享資源,CD包因你而精彩.

        查看全部評分





        BN原抓:傷心欲絕《還是偶爾想要偉大》/WAV整軌/BD
        BN原抓:謝春花《無聲叛逆》/WAV整軌/BD
        您需要登錄后才可以回帖 登錄 | 注冊

        本版積分規則

        快速回復 返回頂部 返回列表
        重庆快乐十分开奖结果彩票控
        1. <pre id="8cusk"></pre>
        2. <object id="8cusk"></object>
          1. <tbody id="8cusk"></tbody>
            1. <pre id="8cusk"></pre>
            2. <object id="8cusk"></object>
              1. <tbody id="8cusk"></tbody>
                北京快乐8软件手机版 虎门酒店小姐qq 电子艺游网站 四川时时真的吗 上赛季nba季后赛战况 赢三张斗地主 千炮捕鱼大满贯免费安装 三分赛走势 iphone4s美女壁纸 喜达娱乐网上棋牌