1. <pre id="8cusk"></pre>
    2. <object id="8cusk"></object>
      1. <tbody id="8cusk"></tbody>

        最近看过此主题的会员

        查看: 244|回復: 1
        打印 上一主題 下一主題

        [華語] BN原抓:謝春花《無聲叛逆》/WAV整軌/BD

        [復制鏈接]

        44

        主題

        592

        帖子

        1萬

        積分

        流行教主

        Rank: 6Rank: 6

        積分
        11158

        社區QQ達人

        跳轉到指定樓層
        1#
        發表于 2019-7-29 21:09:22 | 只看該作者 |只看大圖 回帖獎勵 |倒序瀏覽 |閱讀模式

        注冊會員,獲得無損資源下載地址,享受高品質音樂。

        您需要 登錄 才可以下載或查看,沒有帳號?注冊

        x

            2019年6月6日,謝春花2019全新創作大碟《無聲叛逆》正式上線。專輯一共收錄了8首原創曲目,將謝春花對生活的見解與對世界的認知逐一表達。謝春花一如既往的堅持著她的音樂態度,帶你走進錯綜復雜的世界,走入人海攢動的人生,回歸自己的精神世界,從容且堅定,柔軟卻也棱角分明。
            《無聲叛逆》作為謝春花第四張創作專輯,可以說是一張顛覆性的作品,謝春花在音樂中讓我們重新找到失去的力量、迷失的自我。
            專輯中除了包含早先曝光的《橋下》、《祝你狼狽》、《污泥》3首曲目外,還收錄了4首新歌:《你是》、《行吧》、《久病無醫》、《黑夜雖長》、《自食后果》。謝春花用她慣有的空靈嗓音搭配金屬質感的旋律,叛逆發聲。早先發行的三首曲目,皆讓人聽后大呼震驚,每一段旋律中你都能感受到她內心的吶喊,似是要喚醒那些在忙碌與挫敗中不斷麻木的眾人,一起尋找內心真正渴望的自我。而整張專輯更是態度鮮明,從容不迫,每一段旋律都新穎獨特卻又耐人尋味,引人深思。
        曲目:
        01. 橋下
        02. 你是
        03. 污泥
        04. 久病無醫
        05. 祝你狼狽
        06. 行吧
        07. 黑夜雖長
        08. 自食后果

        ********************分隔線*************************
        Exact Audio Copy V1.2 from 12. August 2016

        EAC 抓取日志文件從29. 七月 2019, 14:54

        謝春花 / 無聲叛逆

        使用驅動器  :PLDS    DVDROM DH16D6SH   Adapter: 1  ID: 0

        讀取模式      : 可靠Secure
        使用精確流     : 是
        清空音頻緩存    : 是
        使用 C2 指示器 : 否

        讀取偏移校正:               : 6
        讀取 Lead-In 和 Lead-Out : 否
        用靜音填充抓取中丟失偏移的采樣       : 是
        去除首尾靜音塊               : 否
        在CRC 計算中使用了空樣本       : 是
        已用接口                  : Win NT 及 2000 本地 Win32 接口

        所用輸出模式: : 內部 WAV 函數
        樣本格式    : 44.100 Hz; 16 Bit; 立體聲

        已抓取 CD 的 TOC

             音軌 |    起始    |    長度    |  起始扇區  |  結束扇區  
            --------------------------------------------
              1 |  0:00.00 |  3:51.21 |      0 |  17345
              2 |  3:51.21 |  3:49.21 |  17346 |  34541
              3 |  7:40.42 |  3:20.70 |  34542 |  49611
              4 | 11:01.37 |  3:26.12 |  49612 |  65073
              5 | 14:27.49 |  3:29.56 |  65074 |  80804
              6 | 17:57.30 |  3:25.01 |  80805 |  96180
              7 | 21:22.31 |  2:58.16 |  96181 | 109546
              8 | 24:20.47 |  3:31.26 | 109547 | 125397

        范圍狀態及錯誤

        已選擇范圍

             文件名 E:\自購CD\謝春花 - 無聲叛逆謝春花 - 無聲叛逆.wav

             峰值電平 100.0 %
             抓取速度 4.9 X
             范圍質量 99.9 %
             復制 CRC 51E8F845
             復制成功

        沒有錯誤發生

        AccurateRip 摘要

        音軌  1  在數據庫中不存在
        音軌  2  在數據庫中不存在
        音軌  3  在數據庫中不存在
        音軌  4  在數據庫中不存在
        音軌  5  在數據庫中不存在
        音軌  6  在數據庫中不存在
        音軌  7  在數據庫中不存在
        音軌  8  在數據庫中不存在

        沒有任何音軌在 AccurateRip 數據庫中有記錄

        狀態報告結尾

        ---- CUETools DB Plugin V2.1.6

        [CTDB TOCID: wHkEGQdoGG9n3tsDpKz1rT3qGGo-] database access error: 操作超時

        ==== 記錄校驗日志 A688E9A61E40C7307B27C2496A21E7C078B943E82720F8601372E377A6933DBC ====
        ********************分隔線*************************
        游客,如果您要查看本帖隱藏內容請回復




        評分

        參與人數 1CD +240 收起 理由
        最終之戰 + 240 很棒的帖子,支持

        查看全部評分





        BN原抓:共犯結構《北山湖紀事本末》/WAV整軌/BD
        BN原抓:刺猬《生之響往》/WAV整軌/BD
         成长值: 13035

        1

        主題

        308

        帖子

        1022

        積分

        VIP6

        Rank: 9Rank: 9Rank: 9

        積分
        1022
        2#
        發表于 2019-8-5 19:00:01 | 只看該作者
        春花的新專沒聽出感覺~
        您需要登錄后才可以回帖 登錄 | 注冊

        本版積分規則

        快速回復 返回頂部 返回列表
        重庆快乐十分开奖结果彩票控
        1. <pre id="8cusk"></pre>
        2. <object id="8cusk"></object>
          1. <tbody id="8cusk"></tbody>
            1. <pre id="8cusk"></pre>
            2. <object id="8cusk"></object>
              1. <tbody id="8cusk"></tbody>
                内蒙古时时开结果查询 赛车pk拾开奖历史 中体比分 时时最精准人工计划 海南省文化体育厅官网 官方大圣捕鱼游戏下载 浙江快乐12基本走势图 半全场可以买几场 非凡炸金花官网下载 福建时时官网平台