1. <pre id="8cusk"></pre>
    2. <object id="8cusk"></object>
      1. <tbody id="8cusk"></tbody>

        最近看过此主题的会员

        查看: 586|回復: 5
        打印 上一主題 下一主題

        [歐美] 原抓 CD圣經推薦!索尼日版《泰坦尼克號》OST WAV整軌/BD

        [復制鏈接]

        13

        主題

        124

        帖子

        3370

        積分

        當紅偶像

        Rank: 4

        積分
        3370
        跳轉到指定樓層
        1#
        發表于 2019-7-31 23:40:46 | 只看該作者 |只看大圖 回帖獎勵 |倒序瀏覽 |閱讀模式

        注冊會員,獲得無損資源下載地址,享受高品質音樂。

        您需要 登錄 才可以下載或查看,沒有帳號?注冊

        x
        本帖最后由 wuqiang1011 于 2019-7-31 23:42 編輯
        索尼日版《泰坦尼克號》OST WAV整軌!不是后出的百年紀念也是奧斯卡獲獎最多的版本。
        全網可能也就我低速抓了放出來了吧,原來下載了一個和我一樣的版本,抓軌感覺不滿意,干脆自己抓了,值得收藏,求高分打賞!



        --------------------------------------------------------------------------------------------------------------------------
        Exact Audio Copy V1.3 from 2. September 2016

        EAC 抓取日志文件從27. 七月 2019, 17:39

        James Horner / Titanic  -  Music From The Motion Picture

        使用驅動器  :TEAC    CD-W28E   Adapter: 1  ID: 0

        讀取模式      : 可靠Secure
        使用精確流     : 是
        清空音頻緩存    : 是
        使用 C2 指示器 : 是

        讀取偏移校正:               : 685
        讀取 Lead-In 和 Lead-Out : 否
        用靜音填充抓取中丟失偏移的采樣       : 是
        去除首尾靜音塊               : 否
        在CRC 計算中使用了空樣本       : 是
        已用接口                  : Win NT 及 2000 本地 Win32 接口

        所用輸出模式: : 內部 WAV 函數
        樣本格式    : 44.100 Hz; 16 Bit; 立體聲


        已抓取 CD 的 TOC

             音軌 |    起始    |    長度    |  起始扇區  |  結束扇區  
            --------------------------------------------
              1 |  0:00.00 |  3:03.57 |      0 |  13781
              2 |  3:03.57 |  2:24.15 |  13782 |  24596
              3 |  5:27.72 |  4:01.65 |  24597 |  42736
              4 |  9:29.62 |  2:52.58 |  42737 |  55694
              5 | 12:22.45 |  3:25.67 |  55695 |  71136
              6 | 15:48.37 |  4:31.17 |  71137 |  91478
              7 | 20:19.54 |  6:52.41 |  91479 | 122419
              8 | 27:12.20 |  3:56.42 | 122420 | 140161
              9 | 31:08.62 |  5:05.10 | 140162 | 163046
             10 | 36:13.72 |  8:26.35 | 163047 | 201031
             11 | 44:40.32 |  6:02.23 | 201032 | 228204
             12 | 50:42.55 |  2:13.07 | 228205 | 238186
             13 | 52:55.62 |  7:58.10 | 238187 | 274046
             14 | 60:53.72 |  5:10.35 | 274047 | 297331
             15 | 66:04.32 |  6:28.00 | 297332 | 326431


        范圍狀態及錯誤

        已選擇范圍

             文件名 F:\HIFI音樂\泰坦尼克號百年紀念自抓日版James Horner - Titanic  -  Music From The Motion Picture.wav

             峰值電平 98.4 %
             抓取速度 1.8 X
             范圍質量 100.0 %
             復制 CRC 390882F2
             復制成功

        沒有錯誤發生


        AccurateRip 摘要

        音軌  1  精確地校準抓取  41)  [53F42551]  (AR v2)
        音軌  2  精確地校準抓取  40)  [2E108366]  (AR v2)
        音軌  3  精確地校準抓取  40)  [727300C6]  (AR v2)
        音軌  4  精確地校準抓取  40)  [3F1919C3]  (AR v2)
        音軌  5  精確地校準抓取  39)  [6B98A719]  (AR v2)
        音軌  6  精確地校準抓取  40)  [9F1D943B]  (AR v2)
        音軌  7  精確地校準抓取  40)  [ADB24178]  (AR v2)
        音軌  8  精確地校準抓取  40)  [DC4FAACC]  (AR v2)
        音軌  9  精確地校準抓取  39)  [3819B829]  (AR v2)
        音軌 10  精確地校準抓取  40)  [2BE0021A]  (AR v2)
        音軌 11  精確地校準抓取  40)  [7D82CA85]  (AR v2)
        音軌 12  精確地校準抓取  40)  [3EC03BBD]  (AR v2)
        音軌 13  精確地校準抓取  38)  [4DE7EF90]  (AR v2)
        音軌 14  精確地校準抓取  40)  [AD08E1A1]  (AR v2)
        音軌 15  精確地校準抓取  39)  [6929B02E]  (AR v2)

        所有音軌精確校準抓取

        狀態報告結尾

        ---- CUETools DB Plugin V2.1.6

        [CTDB TOCID: Oqyj6WBLl3t8JVfbVZwDrZ3YUyw-] found
        Submit result: Oqyj6WBLl3t8JVfbVZwDrZ3YUyw- has been confirmed
        Track | CTDB Status
          1   | (260/262) Accurately ripped
          2   | (259/262) Accurately ripped
          3   | (260/262) Accurately ripped
          4   | (260/262) Accurately ripped
          5   | (261/262) Accurately ripped
          6   | (260/262) Accurately ripped
          7   | (261/262) Accurately ripped
          8   | (261/262) Accurately ripped
          9   | (261/262) Accurately ripped
        10   | (261/262) Accurately ripped
        11   | (261/262) Accurately ripped
        12   | (261/262) Accurately ripped
        13   | (257/262) Accurately ripped
        14   | (260/262) Accurately ripped
        15   | (258/262) Accurately ripped
        游客,如果您要查看本帖隱藏內容請回復


        評分

        參與人數 2CD +480 收起 理由
        szlwfh + 240 感謝分享資源,CD包因你而精彩.
        最終之戰 + 240 感謝分享資源,CD包因你而精彩.

        查看全部評分





        原抓 摩登金屬 諾爾樂隊(Nower)《吾輩今朝》EP 2018/FLAC/WAV/BD
        原抓:索尼日版瑪麗亞凱莉《Daydream》WAV整軌/BD
         成长值: 34650

        1萬

        主題

        2萬

        帖子

        77萬

        積分

        音樂掌門人

        Rank: 20Rank: 20Rank: 20Rank: 20Rank: 20

        積分
        772057

        名人勛章社區QQ達人分享勛章精華帖達人灌水勛章

        2#
        發表于 2019-7-31 23:54:27 | 只看該作者
        捷克斯洛伐克


        哈哈哈哈哈哈

        點評

        這個太有才了。。  詳情 回復 發表于 2019-9-2 22:25

        本人發布的資源,有密碼的話都是:www.2020535.com
        關于鏈接失效的說明(度盤好友分享的說明)
        http://www.2020535.com/thread-117499-1-1.html     
        緊急通告:115,快傳等網盤取消了分享功能禮包碼鏈接全部失效
        http://www.2020535.com/thread-122759-1-1.html

        1

        主題

        1378

        帖子

        1204

        積分

        VIP3

        Rank: 6Rank: 6

        積分
        1204
        3#
        發表于 2019-8-1 14:36:14 | 只看該作者
        收藏最還有側標

        111

        主題

        1712

        帖子

        4萬

        積分

        天王巨星

        Rank: 7Rank: 7Rank: 7

        積分
        49198

        社區QQ達人

        4#
        發表于 2019-8-1 22:39:46 | 只看該作者
        這個不錯!拿下

        257

        主題

        967

        帖子

        5萬

        積分

        天王巨星

        Rank: 7Rank: 7Rank: 7

        積分
        56383
        5#
        發表于 2019-9-2 22:25:06 | 只看該作者
        最終之戰 發表于 2019-7-31 23:54
        捷克斯洛伐克

        哈哈哈哈哈哈

        這個太有才了。。

        257

        主題

        967

        帖子

        5萬

        積分

        天王巨星

        Rank: 7Rank: 7Rank: 7

        積分
        56383
        6#
        發表于 2019-9-2 22:26:19 | 只看該作者
        感謝樓主辛苦抓盤!
        您需要登錄后才可以回帖 登錄 | 注冊

        本版積分規則

        快速回復 返回頂部 返回列表
        重庆快乐十分开奖结果彩票控
        1. <pre id="8cusk"></pre>
        2. <object id="8cusk"></object>
          1. <tbody id="8cusk"></tbody>
            1. <pre id="8cusk"></pre>
            2. <object id="8cusk"></object>
              1. <tbody id="8cusk"></tbody>
                2018棋牌游戏二八杠 足球比分007 投注江苏快三计划软件 长沙站街女包夜 对于通比牛牛技巧 苹果app开发软件 北京时时过年开奖吗 双色球中奖绝技 成都快餐女哪里多 pc蛋蛋幸运28在线预测软件下载