1. <pre id="8cusk"></pre>
    2. <object id="8cusk"></object>
      1. <tbody id="8cusk"></tbody>

        最近看过此主题的会员

        查看: 139|回復: 0
        打印 上一主題 下一主題

        [歐美] 原抓:爵士合集 《Club Jazz A La Mode》 整軌 WAV/ 百度云

        [復制鏈接]
        integral
         成长值: 560

        2

        主題

        24

        帖子

        690

        積分

        VIP1

        Rank: 4

        積分
        690
        跳轉到指定樓層
        1#
        發表于 2019-8-10 20:08:03 | 只看該作者 |只看大圖 回帖獎勵 |倒序瀏覽 |閱讀模式

        注冊會員,獲得無損資源下載地址,享受高品質音樂。

        您需要 登錄 才可以下載或查看,沒有帳號?注冊

        x
        本帖最后由 baily_wan 于 2019-8-13 18:16 編輯

        新人第一帖~日版爵士CD,曲調較歡快,喜歡爵士的別錯過~!
        專輯類型: Import   
                                                    介質: Audio CD   
                                                    發行時間: 2005-01-04   
                                                    出版者: Pioneer





        EAC 抓取日志文件從10. 八月 2019, 19:33
        讀取模式      : 可靠Secure
        使用精確流     : 是
        清空音頻緩存    : 否
        使用 C2 指示器 : 否

        讀取偏移校正:               : 6
        讀取 Lead-In 和 Lead-Out : 否
        用靜音填充抓取中丟失偏移的采樣       : 是
        去除首尾靜音塊               : 否
        在CRC 計算中使用了空樣本       : 是
        已用接口                  : Win NT 及 2000 本地 Win32 接口
        間隙處理                  : 沒檢測到,因此追加到上一曲目

        所用輸出模式: : 內部 WAV 函數
        樣本格式    : 44.100 Hz; 16 Bit; 立體聲


        已抓取 CD 的 TOC

             音軌 |    起始    |    長度    |  起始扇區  |  結束扇區  
            --------------------------------------------
              1 |  0:00.00 |  6:17.28 |      0 |  28302
              2 |  6:17.28 |  7:20.50 |  28303 |  61352
              3 | 13:38.03 |  5:09.42 |  61353 |  84569
              4 | 18:47.45 |  3:57.39 |  84570 | 102383
              5 | 22:45.09 |  3:46.34 | 102384 | 119367
              6 | 26:31.43 |  5:34.14 | 119368 | 144431
              7 | 32:05.57 |  4:45.19 | 144432 | 165825
              8 | 36:51.01 |  6:31.41 | 165826 | 195191
              9 | 43:22.42 |  6:25.14 | 195192 | 224080
             10 | 49:47.56 |  4:07.48 | 224081 | 242653

        下載地址:
        游客,如果您要查看本帖隱藏內容請回復

        評分

        參與人數 1CD +240 收起 理由
        最終之戰 + 240 感謝分享資源,CD包因你而精彩.

        查看全部評分





        最終原抓:霜凍前夜《凌嵐·凋卉》2018簽名版/WAV/天翼云盤
        飛魚原抓:梁靜茹《親親》2006 整軌WAV+LOG/BD
        您需要登錄后才可以回帖 登錄 | 注冊

        本版積分規則

        快速回復 返回頂部 返回列表
        重庆快乐十分开奖结果彩票控
        1. <pre id="8cusk"></pre>
        2. <object id="8cusk"></object>
          1. <tbody id="8cusk"></tbody>
            1. <pre id="8cusk"></pre>
            2. <object id="8cusk"></object>
              1. <tbody id="8cusk"></tbody>
                幸运飞艇冠军全天计划 吉林体彩11选五开奖走势 新时时彩中3走势图 陕西11选5开奖号码 多彩重庆30秒开奖 老时时360 3分赛车走势 战狼团队精准彩票计划 什么叫违规投注 重庆时时计划哪里买