1. <pre id="8cusk"></pre>
    2. <object id="8cusk"></object>
      1. <tbody id="8cusk"></tbody>

        最近看过此主题的会员

        查看: 210|回復: 2
        打印 上一主題 下一主題

        [華語] 原抓:李夏&立東樂隊《大象》2017/WAV整軌/度盤

        [復制鏈接]

        33

        主題

        165

        帖子

        1萬

        積分

        流行教主

        Rank: 6Rank: 6

        積分
        16710
        跳轉到指定樓層
        1#
        發表于 2019-8-23 20:52:56 | 只看該作者 |只看大圖 回帖獎勵 |倒序瀏覽 |閱讀模式

        注冊會員,獲得無損資源下載地址,享受高品質音樂。

        您需要 登錄 才可以下載或查看,沒有帳號?注冊

        x
        表演者: 李夏   
        流派: 民謠
        專輯類型: 專輯
        發行時間: 2017-08-14
        出版者: 星外星
        條碼:9787798509540


        簡介  · · · · · ·
          你是否曾坐在潮汐的窗臺,等待回憶把你淹沒?
          那句“以前的我們很不現實,未來的我們大概還是一樣”有多少人還記得?
          現實與理想交錯,我懂;情懷和時間凋落,不說。
          沉默……滴落在腳邊的汗水稀釋了粉紅的夕陽余光,緩緩閉合的睫毛收割了月光墜落的片刻。
          為這片刻,我們已經睽違五年。
          還記得,那張《立東》,有如一本色彩艷麗的畫冊,其中的每一筆,都把民謠中斷然離不開的不舍和迷茫,毫不猶豫地放肆揮灑在承載其能量的曲調上,它讓你看見彩虹、河流和家鄉;
          而今,一張《大象》,則更多的像是一本有血有肉的小說,靠每一個字眼和段落,把正常語境下的場景撕裂后再重新拼湊,用作詞作曲人心中富有詩意的琴弦,協奏出一種擲地有聲的感覺。
          這不是偶然,也不是時間使然,熟悉的人自然明白,在李夏粗獷的外表下,有著怎樣一顆如大象般敏感纖細的心。這份或痛苦或美好的感知能力,就好像是探測音樂秘境的觸角,每一絲來自情感空氣的振動,都能牽動他渴望描摹這個世界的神經。
          一千多個日夜的錘煉,濃縮的,是李夏最恣意瀟灑的十余年。這段由歌詞和詩歌串聯起來的青春歲月,有幾番滄海桑田,專輯中的蛛絲馬跡都能帶領聽眾一一找尋。除了《梧桐樹下的戀人》,新專輯中的詞曲都由李夏自己包辦。如果能靜下心來仔細聆聽,我們不難發覺,在這沉悶主題下被旋律和詩句釋放的張揚情感,遠比《立東》更為精彩。
          孤兒和抑郁癥患者,影子和戀人,破繭的蝴蝶與不明的隱喻,坦然地高歌向前和對未知土地的想象……豐富的意象之下,除了承襲了李夏對音樂一如既往的熱情,也有朦朧之間對生活的釋然。年近不惑之際,詩人情懷讓李夏選擇了“不別勁”,這不是什么讓人難堪的怯弱,而是一種更為成熟和包容的形式,重新詮釋自己關于音樂甚至是人生的理解。就像有人這樣評價李夏的詩句,“它就站在那里,它豐富極了”。
          我們行走在這世上,若說對未來沒有任何希冀,那是不現實的。但是我們也很難在一張豐富的音樂專輯里,去尋找標準化的層次感。有的時候,也該放縱一把,把凡俗間的種種束縛全都丟開,期待回應,期待未來,期待未知,正如專輯同名曲《大象》中所表達的那樣,即使“奔跑在,一個人的狂野”,也會聲嘶力竭地大聲呼喊“喂!你回答我!”

        游客,如果您要查看本帖隱藏內容請回復

        1. <strong><font face="微軟雅黑">Exact Audio Copy V1.3 from 2. September 2016

        2. EAC 抓取日志文件從5. 六月 2019, 23:11

        3. 李夏&立東樂隊 / 大象

        4. 使用驅動器  :PLEXTOR CD-R   PREMIUM   Adapter: 1  ID: 1

        5. 讀取模式      : 可靠Secure
        6. 使用精確流     : 是
        7. 清空音頻緩存    : 否
        8. 使用 C2 指示器 : 是

        9. 讀取偏移校正:               : 30
        10. 讀取 Lead-In 和 Lead-Out : 否
        11. 用靜音填充抓取中丟失偏移的采樣       : 是
        12. 去除首尾靜音塊               : 否
        13. 在CRC 計算中使用了空樣本       : 是
        14. 已用接口                  : Win NT 及 2000 本地 Win32 接口

        15. 所用輸出模式: : 內部 WAV 函數
        16. 樣本格式    : 44.100 Hz; 16 Bit; 立體聲


        17. 已抓取 CD 的 TOC

        18.      音軌 |    起始    |    長度    |  起始扇區  |  結束扇區  
        19.     --------------------------------------------
        20.       1 |  0:00.00 |  5:21.20 |      0 |  24094
        21.       2 |  5:21.20 |  4:12.22 |  24095 |  43016
        22.       3 |  9:33.42 |  6:31.27 |  43017 |  72368
        23.       4 | 16:04.69 |  5:18.22 |  72369 |  96240
        24.       5 | 21:23.16 |  4:52.67 |  96241 | 118207
        25.       6 | 26:16.08 |  5:31.30 | 118208 | 143062
        26.       7 | 31:47.38 |  4:32.29 | 143063 | 163491
        27.       8 | 36:19.67 |  5:50.68 | 163492 | 189809
        28.       9 | 42:10.60 |  5:23.57 | 189810 | 214091
        29.      10 | 47:34.42 |  4:52.14 | 214092 | 236005
        30.      11 | 52:26.56 |  6:48.62 | 236006 | 266667


        31. 范圍狀態及錯誤

        32. 已選擇范圍

        33.      文件名 G:\EAC\李夏&立東樂隊 - 2017《大象》[WAV整軌]\李夏&立東樂隊 - 大象.wav

        34.      峰值電平 100.0 %
        35.      抓取速度 27.6 X
        36.      范圍質量 100.0 %
        37.      復制 CRC 6FFEE781
        38.      復制成功

        39. 沒有錯誤發生

        40. 狀態報告結尾

        41. ---- CUETools DB Plugin V2.1.6

        42. [CTDB TOCID: zZInu0SSmWLGbjuYI2TZw4mc6Nk-] found
        43. Submit result: zZInu0SSmWLGbjuYI2TZw4mc6Nk- has been confirmed
        44. Track | CTDB Status
        45.   1   | (3/3) Accurately ripped
        46.   2   | (3/3) Accurately ripped
        47.   3   | (3/3) Accurately ripped
        48.   4   | (3/3) Accurately ripped
        49.   5   | (3/3) Accurately ripped
        50.   6   | (3/3) Accurately ripped
        51.   7   | (3/3) Accurately ripped
        52.   8   | (3/3) Accurately ripped
        53.   9   | (3/3) Accurately ripped
        54. 10   | (3/3) Accurately ripped
        55. 11   | (3/3) Accurately ripped</font></strong>
        復制代碼


        評分

        參與人數 1CD +240 收起 理由
        最終之戰 + 240 很棒的帖子,支持

        查看全部評分





        胡嗎個《人人都有個小板凳,我的不帶入二十一世紀》1999/..
        原抓:李夏&amp;立東樂隊《立東》2012/WAV整軌/BD
         成长值: 530

        0

        主題

        471

        帖子

        69

        積分

        VIP1

        Rank: 4

        積分
        69

        社區QQ達人

        2#
        發表于 2019-8-27 11:29:45 | 只看該作者
        李夏的音樂現場我看過,很不錯的樂隊和創作人。。。

        28

        主題

        814

        帖子

        4萬

        積分

        天王巨星

        Rank: 7Rank: 7Rank: 7

        積分
        42344

        社區QQ達人VIP勛章

        3#
        發表于 2019-9-27 17:57:09 | 只看該作者
        只聽過一首他的音樂
        您需要登錄后才可以回帖 登錄 | 注冊

        本版積分規則

        快速回復 返回頂部 返回列表
        重庆快乐十分开奖结果彩票控
        1. <pre id="8cusk"></pre>
        2. <object id="8cusk"></object>
          1. <tbody id="8cusk"></tbody>
            1. <pre id="8cusk"></pre>
            2. <object id="8cusk"></object>
              1. <tbody id="8cusk"></tbody>
                pk10害死人再也不玩 赌不贪一天赢100可以吗 腾讯分分彩后三组选包胆软件 福州小姐哪里有 093彩票app最新版 广东时时网站注册 只赚不赔的投资 五星级酒店 特殊服务 彩票有没有大小单双的玩法 长春沐足 大腿推