1. <pre id="8cusk"></pre>
    2. <object id="8cusk"></object>
      1. <tbody id="8cusk"></tbody>

        最近看过此主题的会员

        查看: 234|回復: 1
        打印 上一主題 下一主題

        [華語] 原抓:李夏&立東樂隊《立東》2012/WAV整軌/BD

        [復制鏈接]

        33

        主題

        165

        帖子

        1萬

        積分

        流行教主

        Rank: 6Rank: 6

        積分
        16710
        跳轉到指定樓層
        1#
        發表于 2019-8-23 20:57:18 | 只看該作者 |只看大圖 回帖獎勵 |倒序瀏覽 |閱讀模式

        注冊會員,獲得無損資源下載地址,享受高品質音樂。

        您需要 登錄 才可以下載或查看,沒有帳號?注冊

        x
        表演者: 立東    立東樂隊  
        流派: 民謠
        專輯類型: 專輯
        介質: CD
        發行時間: 2012-05-19
        出版者: 中國華僑出版社
        唱片數: 1
        條形碼: 9787889230919


        簡介  · · · · · ·
          立東樂隊的首張專輯
          給未知朋友的信
          未知的朋友,你好!
          此專輯錄音歷時一年半,期間發生的故事無數,我只想在這里大概記下一些收支目錄,作為對立東樂隊已經發生過的過去的紀念:
          貝斯:師振凱
          BASS換了兩套弦,并且買了一把新MUSICMAN BASS一萬三千元但是沒有用它錄 音。
          吉他:李泰霖
          買了一把GIBSON的破損箱琴三千五百元,用它錄了這張專輯大部分的吉他部分,期間為他換了6套琴弦600元。
          二琴:吳可嘉
          買了一把新馬丁吉他一萬七千圓并用它錄了專輯中的兩首歌。
          手風琴:MALIKA
          離開兩年以后在錄音末期也回到了立東樂隊。
          鼓手:劉淼
          在寧夏辦了一次音樂節,賠錢賺吆喝。
          朋友:
          請原鮑家街43號樂隊BASS手王磊錄《藍駿馬》,給了他很友情的四位數友情價,車費飯錢忽略不計。
          請來張瑋瑋錄手風琴,飯錢與車費忽略不計。
          請郝云樂隊的張明錄口琴,此人好酒,酒后的口琴徹底將我的心肝放逐,酒錢飯錢不計。
          意外:
          我在去年夏天幫國際友人開車掙了七千圓,完活后修車折進去兩千,剩下的都交了錄音費。因錄音周期長錄音費與混音費本該交十萬,但錄音師太喜歡與制作人爭執,時間都花在了吵架上,所以錄音師為我們減免了十分之九的錄音費。專輯發行前兩個月在網上預售專輯籌來八千四百元,扣除中間商10%費用,其余所有用于唱片封套的開支,所有樂手與錄音師的飯錢車錢不計其數。去年的雨季錄音棚年久失修漏雨導致錄音工作停滯三個月,今年新年鼓手劉淼的手骨骨折,停滯一個月。所有的錄音工作完成三天后BASS手師振凱車禍致鎖骨骨折……
          最后:
          以前的我們很不現實,未來大概還是一樣,音樂是這暗淡生活給予我們的唯一喘息,是與現實無關的自由。

        曲目  
        1.未來
        2.小牡丹
        3.月亮
        4.我不是…
        5.河西
        6.雨天
        7.Mr. Moon
        8.藍駿馬
        9.立東

        游客,如果您要查看本帖隱藏內容請回復

        1. Exact Audio Copy V1.3 from 2. September 2016

        2. EAC 抓取日志文件從8. 六月 2019, 22:05

        3. 李夏&立東樂隊 / 立東

        4. 使用驅動器  :PLEXTOR CD-R   PREMIUM   Adapter: 1  ID: 1

        5. 讀取模式      : 可靠Secure
        6. 使用精確流     : 是
        7. 清空音頻緩存    : 否
        8. 使用 C2 指示器 : 是

        9. 讀取偏移校正:               : 30
        10. 讀取 Lead-In 和 Lead-Out : 否
        11. 用靜音填充抓取中丟失偏移的采樣       : 是
        12. 去除首尾靜音塊               : 否
        13. 在CRC 計算中使用了空樣本       : 是
        14. 已用接口                  : Win NT 及 2000 本地 Win32 接口

        15. 所用輸出模式: : 內部 WAV 函數
        16. 樣本格式    : 44.100 Hz; 16 Bit; 立體聲


        17. 已抓取 CD 的 TOC

        18.      音軌 |    起始    |    長度    |  起始扇區  |  結束扇區  
        19.     --------------------------------------------
        20.       1 |  0:00.00 |  4:14.52 |      0 |  19101
        21.       2 |  4:14.52 |  4:02.23 |  19102 |  37274
        22.       3 |  8:17.00 |  5:52.70 |  37275 |  63744
        23.       4 | 14:09.70 |  3:55.46 |  63745 |  81415
        24.       5 | 18:05.41 |  4:37.06 |  81416 | 102196
        25.       6 | 22:42.47 |  4:37.19 | 102197 | 122990
        26.       7 | 27:19.66 |  4:10.09 | 122991 | 141749
        27.       8 | 31:30.00 |  6:20.60 | 141750 | 170309
        28.       9 | 37:50.60 |  3:39.19 | 170310 | 186753


        29. 范圍狀態及錯誤

        30. 已選擇范圍

        31.      文件名 G:\EAC\李夏&立東樂隊 - 2012《立東》[WAV整軌]\李夏&立東樂隊 - 立東.wav

        32.      峰值電平 100.0 %
        33.      抓取速度 19.5 X
        34.      范圍質量 99.9 %
        35.      復制 CRC 8848B970
        36.      復制成功

        37. 沒有錯誤發生

        38. 狀態報告結尾

        39. ---- CUETools DB Plugin V2.1.6

        40. [CTDB TOCID: 5pyIqgyrJBmfBh8ISlGgaI7OLO8-] found
        41. Submit result: 5pyIqgyrJBmfBh8ISlGgaI7OLO8- has been confirmed
        42. Track | CTDB Status
        43.   1   | (1/1) Accurately ripped
        44.   2   | (1/1) Accurately ripped
        45.   3   | (1/1) Accurately ripped
        46.   4   | (1/1) Accurately ripped
        47.   5   | (1/1) Accurately ripped
        48.   6   | (1/1) Accurately ripped
        49.   7   | (1/1) Accurately ripped
        50.   8   | (1/1) Accurately ripped
        51.   9   | (1/1) Accurately ripped

        復制代碼


        評分

        參與人數 1CD +240 收起 理由
        最終之戰 + 240 感謝分享資源,CD包因你而精彩.

        查看全部評分





        原抓:李夏&amp;立東樂隊《大象》2017/WAV整軌/度盤
        fennnnny原抓:André Bénichou《jazz guitar bach》1965/FLAC/BD

        28

        主題

        814

        帖子

        4萬

        積分

        天王巨星

        Rank: 7Rank: 7Rank: 7

        積分
        42344

        社區QQ達人VIP勛章

        2#
        發表于 2019-9-27 17:57:32 | 只看該作者
        蔣敦豪翻唱過他的離開北京
        您需要登錄后才可以回帖 登錄 | 注冊

        本版積分規則

        快速回復 返回頂部 返回列表
        重庆快乐十分开奖结果彩票控
        1. <pre id="8cusk"></pre>
        2. <object id="8cusk"></object>
          1. <tbody id="8cusk"></tbody>
            1. <pre id="8cusk"></pre>
            2. <object id="8cusk"></object>
              1. <tbody id="8cusk"></tbody>
                捷捷娱乐 内蒙古时时走势带线 北京pk10稳杀一码 重庆时时在线预测软件 JJ彩票娱乐 彩票大小单双 147欧美人体写真集 西安站街女哪里多 东莞小姐务 太原沐足店怎么玩