1. <pre id="8cusk"></pre>
    2. <object id="8cusk"></object>
      1. <tbody id="8cusk"></tbody>

        最近看过此主题的会员

        查看: 281|回復: 11
        打印 上一主題 下一主題

        靈魂/軟搖滾:Peabo Bryson《Through the Fire》1994/WAV/度盤

        [復制鏈接]

        2

        主題

        196

        帖子

        770

        積分

        職業歌手

        Rank: 3Rank: 3

        積分
        770
        跳轉到指定樓層
        1#
        發表于 2019-8-27 09:28:36 | 只看該作者 |只看大圖 回帖獎勵 |倒序瀏覽 |閱讀模式

        注冊會員,獲得無損資源下載地址,享受高品質音樂。

        您需要 登錄 才可以下載或查看,沒有帳號?注冊

        x




        Peabo Bryson ?– Through The Fire

        Columbia ?– CK 52911
        CD, Album
        US
        1994
        Funk / Soul


        1        Treat Her Like A Lady       
        2        A Whole New World (Aladdin's Theme)       
        3        Love Will Take Care Of You       
        4        Never Saw A Miracle       
        5        Why Goodbye
        Producer – David Foster
        Written-By – Diane Warren
        6        Through The Fire
        Music By – David Foster
        7        Spanish Eyes       
        8        By The Time This Night Is Over       
        9        Beauty And The Beast       
        10        You Can Have Me Anytime       
        11        Don't Make Me Wait       
        12        Same Old Love


        度盤下載:
        鏈接地址:https://pan.baidu.com/s/1iKvmfeahQL_lmeh3BMGVEA
        提取碼:
        游客,如果您要查看本帖隱藏內容請回復



        點評

        magnet:?xt=urn:btih:14E0A122CAB4F52B1E4B2A90322F950ED727E40C&tr=http%3A%2F%2Fbt4.t-ru.org%2Fann%3Fmagnet  發表于 2019-9-30 17:20
        鏈接掛了,我補個磁鏈吧  發表于 2019-9-30 17:20

        評分

        參與人數 1CD +80 收起 理由
        最終之戰 + 80

        查看全部評分





        Taylor Swift《Lover》2019/HiRes/FLAC_MQA/BD/723M
        流行: Barbra Streisand 《Duets》2002/WAV/度盤
         成长值: 34635

        1萬

        主題

        2萬

        帖子

        77萬

        積分

        音樂掌門人

        Rank: 20Rank: 20Rank: 20Rank: 20Rank: 20

        積分
        772057

        名人勛章社區QQ達人分享勛章精華帖達人灌水勛章

        2#
        發表于 2019-8-27 09:49:18 | 只看該作者
        REM GENRE R&B
        REM DATE 1994
        REM DISCID AE0D790C
        REM COMMENT "ExactAudioCopy v1.0b3"
        PERFORMER "Peabo Bryson"
        TITLE "Through the Fire"
        FILE "Peabo Bryson - Through the Fire.wav" WAVE
          TRACK 01 AUDIO
            TITLE "Treat Her Like a Lady"
            PERFORMER "Peabo Bryson"
            INDEX 01 00:00:00
          TRACK 02 AUDIO
            TITLE "Peabo Bryson\\Regina Belle/A Whole New World {Aladdin's Theme}"
            PERFORMER "Peabo Bryson"
            INDEX 00 04:24:60
            INDEX 01 04:26:60
          TRACK 03 AUDIO
            TITLE "Love Will Take Care of You"
            PERFORMER "Peabo Bryson"
            INDEX 00 08:31:55
            INDEX 01 08:33:55
          TRACK 04 AUDIO
            TITLE "Never Saw a Miracle"
            PERFORMER "Peabo Bryson"
            INDEX 00 13:06:37
            INDEX 01 13:08:37
          TRACK 05 AUDIO
            TITLE "Why Goodbye"
            PERFORMER "Peabo Bryson"
            INDEX 00 16:57:20
            INDEX 01 16:59:20
          TRACK 06 AUDIO
            TITLE "Through the Fire"
            PERFORMER "Peabo Bryson"
            INDEX 00 21:22:34
            INDEX 01 21:24:34
          TRACK 07 AUDIO
            TITLE "Spanish Eyes"
            PERFORMER "Peabo Bryson"
            INDEX 00 26:31:49
            INDEX 01 26:33:49
          TRACK 08 AUDIO
            TITLE "By the Time This Night Is Over"
            PERFORMER "Peabo Bryson"
            INDEX 00 33:04:52
            INDEX 01 33:06:52
          TRACK 09 AUDIO
            TITLE "Celine Dion\\Peabo Bryson/Beauty and the Beast"
            PERFORMER "Peabo Bryson"
            INDEX 00 37:53:04
            INDEX 01 37:55:04
          TRACK 10 AUDIO
            TITLE "You Can Have Me Anytime"
            PERFORMER "Peabo Bryson"
            INDEX 00 42:01:37
            INDEX 01 42:03:37
          TRACK 11 AUDIO
            TITLE "Don't Make Me Wait"
            PERFORMER "Peabo Bryson"
            INDEX 00 46:43:44
            INDEX 01 46:45:44
          TRACK 12 AUDIO
            TITLE "Same Old Love"
            PERFORMER "Peabo Bryson"
            INDEX 00 52:21:62
            INDEX 01 52:23:62



        本人發布的資源,有密碼的話都是:www.2020535.com
        關于鏈接失效的說明(度盤好友分享的說明)
        http://www.2020535.com/thread-117499-1-1.html     
        緊急通告:115,快傳等網盤取消了分享功能禮包碼鏈接全部失效
        http://www.2020535.com/thread-122759-1-1.html
         成长值: 34635

        1萬

        主題

        2萬

        帖子

        77萬

        積分

        音樂掌門人

        Rank: 20Rank: 20Rank: 20Rank: 20Rank: 20

        積分
        772057

        名人勛章社區QQ達人分享勛章精華帖達人灌水勛章

        3#
        發表于 2019-8-27 09:50:33 | 只看該作者
        發帖子的格式確實不對。我先幫你修改了,以后發帖請參考!

        本人發布的資源,有密碼的話都是:www.2020535.com
        關于鏈接失效的說明(度盤好友分享的說明)
        http://www.2020535.com/thread-117499-1-1.html     
        緊急通告:115,快傳等網盤取消了分享功能禮包碼鏈接全部失效
        http://www.2020535.com/thread-122759-1-1.html

        0

        主題

        519

        帖子

        701

        積分

        職業歌手

        Rank: 3Rank: 3

        積分
        701
        4#
        發表于 2019-8-27 11:42:29 | 只看該作者
        THANk YOU FOR YOUR SHARING THIS MUSIC

        0

        主題

        843

        帖子

        1519

        積分

        當紅偶像

        Rank: 4

        積分
        1519
        5#
        發表于 2019-8-27 12:19:19 | 只看該作者
        感謝樓主分享,辛苦了!

        0

        主題

        211

        帖子

        488

        積分

        職業歌手

        Rank: 3Rank: 3

        積分
        488

        社區QQ達人

        6#
        發表于 2019-9-2 14:17:37 | 只看該作者
        這是張很棒的專輯,歌手不知名,長的也不好看,但真的很好聽哈!謝謝分享!

        0

        主題

        168

        帖子

        234

        積分

        樂壇新星

        Rank: 2

        積分
        234
        7#
        發表于 2019-9-11 14:12:26 | 只看該作者
        thanks for sharing!......

        0

        主題

        36

        帖子

        430

        積分

        樂壇新星

        Rank: 2

        積分
        430
        8#
        發表于 2019-9-13 21:50:55 | 只看該作者
        沒聽過,下載聽聽,黑人還是很有才的

        2

        主題

        134

        帖子

        89

        積分

        新人會員,請認真回復,若惡意回復,直接封號

        Rank: 1

        積分
        89
        9#
        發表于 2019-9-17 09:57:18 | 只看該作者
        Christian Wunderlich 翻唱的 Why Goodbye 至今印象深刻

        0

        主題

        15

        帖子

        38

        積分

        新人會員,請認真回復,若惡意回復,直接封號

        Rank: 1

        積分
        38
        10#
        發表于 2019-10-1 19:52:43 | 只看該作者
        這個很經典,上學的時候聽過他和Kenny G合作的歌
        您需要登錄后才可以回帖 登錄 | 注冊

        本版積分規則

        快速回復 返回頂部 返回列表
        重庆快乐十分开奖结果彩票控
        1. <pre id="8cusk"></pre>
        2. <object id="8cusk"></object>
          1. <tbody id="8cusk"></tbody>
            1. <pre id="8cusk"></pre>
            2. <object id="8cusk"></object>
              1. <tbody id="8cusk"></tbody>
                e尊国际28 pk10计划软件免费 棋牌休闲炸金花游戏 山西时时彩 中国彩票9.6亿大奖 黑龙江时时视频 重庆时时开奖结果500 长春按摩最好 大赢家足球即时比分蠃 竞猜计算器足球胜平负